ニコニコチャンネルメニュー

ブロマガ - ニコニコチャンネル

イエコンのブロマガ

【洋楽再エンコテスト】初心者のエンコード日記(不定期)③

2018/05/10 16:03 投稿

  • タグ:
  • 洋楽
  • AviUtl

文章を書くのが本当に苦手なので、ブログを放置してましたが・・・m(_ _)m
コメント欄では説明しきれない事が多いのでいくつかお話ししようかと思います・。・

実は1080p化される前、新仕様になった頃に自分の動画をダウンロードしようと試したのですが、720pの動画がダウンロード出来ず(その頃のDL Helper)諦めたままでした

コメントで再エンコの技術的見解を尋ねられたので、試しにダウンロードした所、
1080p 4Mとして生成された動画が(多分)落とせましたので調べて見ました
(常々言ってますがAviUtlもまだまだ自在に使えないレベルの初心者なので、専門的な言葉など誤用もあるかと思いますm(_ _)m)

先ずは再エンコ前の動画 Kygo & Miguel - Remind Me to Forget


Format : MPEG-4
Codec ID : M4V (M4V /M4A /mp42/mp41/isom/avc1)
File size : 337 MiB
Duration : 3 min 47 s
Overall bit rate mode : Variable
Overall bit rate : 12.4 Mb/s
Writing application : L-SMASH

Video
ID : 1
Format : AVC
Format/Info : Advanced Video Codec
Format profile : High@L4
Format settings, CABAC : Yes
Format settings, RefFrames : 4 frames
Codec ID : avc1
Codec ID/Info : Advanced Video Coding
Duration : 3 min 47 s
Bit rate : 12.1 Mb/s
Maximum bit rate : 26.7 Mb/s
Width : 1 920 pixels
Height : 1 080 pixels
Display aspect ratio : 16:9
Frame rate mode : Constant
Frame rate : 23.976 (23976/1000) FPS
Color space : YUV
Chroma subsampling : 4:2:0
Bit depth : 8 bits
Scan type : Progressive
Bits/(Pixel*Frame) : 0.243
Stream size : 328 MiB (97%)
Writing library : x264 core 155 r2901M 7d0ff22
Color range : Limited
Color primaries : BT.709
Matrix coefficients : BT.709

Audio
ID : 2
Format : AAC
Format/Info : Advanced Audio Codec
Format profile : LC
Codec ID : 40
Duration : 3 min 47 s
Bit rate mode : Variable
Bit rate : 317 kb/s
Channel(s) : 2 channels
Channel positions : Front: L R
Sampling rate : 48.0 kHz
Frame rate : 46.875 FPS (1024 SPF)
Compression mode : Lossy
Stream size : 8.59 MiB (3%)

WaveSpectraで周波数特性を表示




続いてニコニコでの再エンコ動画



Format : MPEG-4

Format profile : Base Media
Codec ID : isom (isom/iso2/mp41)
File size : 115 MiB
Duration : 3 min 47 s
Overall bit rate : 4 251 kb/s

Video
ID : 1
Format : AVC
Format/Info : Advanced Video Codec
Format profile : High@L4.2
Format settings, CABAC : Yes
Format settings, RefFrames : 4 frames
Format settings, GOP : M=4, N=24
Codec ID : avc1
Codec ID/Info : Advanced Video Coding
Duration : 3 min 47 s
Bit rate : 4 002 kb/s
Width : 1 920 pixels
Height : 1 080 pixels
Display aspect ratio : 16:9
Frame rate mode : Constant
Frame rate : 23.976 (23976/1000) FPS
Color space : YUV
Chroma subsampling : 4:2:0
Bit depth : 8 bits
Scan type : Progressive
Bits/(Pixel*Frame) : 0.080
Stream size : 108 MiB (94%)
Color range : Limited
Color primaries : BT.709
Transfer characteristics : BT.709
Matrix coefficients : BT.709

Audio
ID : 2
Format : AAC
Format/Info : Advanced Audio Codec
Format profile : LC
Codec ID : 40
Duration : 3 min 47 s
Bit rate mode : Constant
Bit rate : 245 kb/s
Channel(s) : 2 channels
Channel positions : Front: L R
Sampling rate : 48.0 kHz
Frame rate : 46.875 FPS (1024 SPF)
Compression mode : Lossy
Stream size : 6.64 MiB (6%)
Default : Yes
Alternate group : 1


※音声が192 kb/sだと思ってましたが245 kb/sでした(´・ω・`)

WaveSpectraで周波数特性を表示




因みに
つべはどうかと言うと



Format : dash

Codec ID : dash (iso6/avc1/mp41)
File size : 20.2 MiB
Duration : 3 min 46 s
Overall bit rate mode : Variable
Overall bit rate : 747 kb/s

Video

ID : 1
Format : AVC
Format/Info : Advanced Video Codec
Format profile : High@L4
Format settings, CABAC : Yes
Format settings, RefFrames : 3 frames
Codec ID : avc1
Codec ID/Info : Advanced Video Coding
Duration : 3 min 46 s
Bit rate : 617 kb/s
Width : 1 920 pixels
Height : 804 pixels
Display aspect ratio : 2.40:1
Frame rate mode : Variable
Frame rate : 23.976 (24000/1001) FPS
Minimum frame rate : 23.974 FPS
Maximum frame rate : 23.981 FPS
Color space : YUV
Chroma subsampling : 4:2:0
Bit depth : 8 bits
Scan type : Progressive
Bits/(Pixel*Frame) : 0.017
Stream size : 16.7 MiB (83%)
Color range : Limited
Color primaries : BT.709
Transfer characteristics : BT.709
Matrix coefficients : BT.709

Audio
ID : 2
Format : AAC
Format/Info : Advanced Audio Codec
Format profile : LC
Codec ID : 40
Duration : 3 min 46 s
Bit rate mode : Variable
Bit rate : 126 kb/s
Channel(s) : 2 channels
Channel positions : Front: L R
Sampling rate : 44.1 kHz
Frame rate : 43.066 FPS (1024 SPF)
Compression mode : Lossy
Stream size : 3.40 MiB (17%)
Language : English


例外もありますが、メジャーであっても更に上位のレーベルで無ければ
ビットレート、サイズ共にニコニコ動画のスマホ用の数値レベルだったりします
Linkin Parkの動画は高画質でも、 Linkin Park - Heavy feat. Kiiaraの時は今回くらいの数値で、画質の悪さに驚かされました

WaveSpectraで周波数特性を表示




これはOpusじゃなく、AACなので15kHz~16.5kHzでカットされています
Opusだと20kHzカットまで最近は対応しています

質問にあった技術的見解と言われると…困ってしまいますが
静止画に弱いと言われている部分など、ニコニコ側がどうエンコードしているか
情報が少ないので何とも言えなくすみません
前の2Mbps時は流石にカラフルなThe Victoria's Secret Showだと色が抜けてスカスカな
印象でしたが、今は何とか表現できていると思います
せめて30fpsでも6~8Mbps、音声はFLAC対応なら面白いですけど…
因みに、動画投稿は tsファイル(MPEG2 TS、m2tsファイル)も試しにあげたらアップはできたのですが…サムネ選択の所で画像が表示されず進めませんでした(´・ω・`)

結論的な答えが出せず、申し訳無いのですが…ガチ勢な方は数値から何かお役に立てるような情報になれば幸いですm(_ _)m

おまけにいくつかの音楽チャンネルの動画のロゴ(watermark)を紹介します

ねずみーチャンネル


各チャンネル共、何年か毎にロゴ(watermark)は変わります

M6 HD フランスのテレビ局


NRJ HITS こちらもフランス


VH1 HD アメリカ、画質は凄いのですが…


MUSIC ON! TV 日本…このwatermarkは最悪ですよねえ⊙。⊙


MTV等の専門チャンネルも、昔は感動して観まくりましたが、最大の欠点はロゴや時間表示、曲が連続する場合、前の曲の終わりと最初が被る(映像・音)ので全てが観れない
静かに終わる曲に出だしが大きい音の曲が続くと最悪なんですよね


コメント

コメントはまだありません
コメントを書き込むにはログインしてください。

いまブロマガで人気の記事